<?xml version="1.0" standalone="no"?>
<!DOCTYPE svg PUBLIC "-//W3C//DTD SVG 1.1//EN" "http://www.w3.org/Graphics/SVG/1.1/DTD/svg11.dtd" >
<svg xmlns="http://www.w3.org/2000/svg">
<metadata></metadata>
<defs>
<font id="avantgarde_bk_btbook" horiz-adv-x="1157" >
<font-face units-per-em="2048" ascent="1638" descent="-410" />
<missing-glyph horiz-adv-x="578" />
<glyph horiz-adv-x="2048" />
<glyph horiz-adv-x="2048" />
<glyph unicode="&#xd;" horiz-adv-x="578" />
<glyph unicode=" "  horiz-adv-x="578" />
<glyph unicode="&#x09;" horiz-adv-x="578" />
<glyph unicode="&#xa0;" horiz-adv-x="578" />
<glyph unicode="!" horiz-adv-x="588" d="M223 0v266h142v-266h-142zM223 379v1077h142v-1077h-142z" />
<glyph unicode="&#x22;" horiz-adv-x="569" d="M98 881v553h101v-553h-101zM371 881v553h102v-553h-102z" />
<glyph unicode="#" horiz-adv-x="1575" d="M117 479l39 109h325l101 276h-353l35 107h354l173 483h127l-168 -483h264l172 483h127l-170 -483h315l-37 -107h-317l-98 -276h340l-37 -109h-340l-170 -479h-129l172 479h-269l-172 -479h-127l170 479h-327zM612 588h267l96 276h-266z" />
<glyph unicode="$" d="M152 432h139v-16q0 -141 72.5 -214t211.5 -73q133 0 210 72.5t77 195.5q0 195 -309 297q-20 7 -30 10q-191 63 -263 144t-72 219q0 146 90 252.5t230 124.5v213h143v-213q148 -17 232 -112t92 -253h-144v4q0 110 -66.5 176t-176.5 66q-119 0 -188.5 -68t-69.5 -182 q0 -159 284 -257q59 -20 91 -32q164 -60 233.5 -144.5t69.5 -221.5q0 -172 -98.5 -287t-258.5 -129v-246h-143v246q-160 17 -258 135t-98 293z" />
<glyph unicode="%" horiz-adv-x="1796" d="M90 1126q0 150 104.5 254.5t254.5 104.5q149 0 254.5 -105t105.5 -254q0 -150 -105 -254t-255 -104q-151 0 -255 104t-104 254zM219 1124q0 -94 66.5 -160.5t160.5 -66.5t160 66t66 161t-65.5 160.5t-160.5 65.5t-161 -66t-66 -160zM451 -29l778 1514h117l-779 -1514 h-116zM987 330q0 149 104.5 253.5t254.5 104.5q149 0 253.5 -104.5t104.5 -253.5q0 -151 -104 -255t-254 -104q-151 0 -255 104t-104 255zM1114 330q0 -95 66.5 -161.5t160.5 -66.5q95 0 161.5 66.5t66.5 161.5q0 93 -66.5 159t-161.5 66t-161 -65.5t-66 -159.5z" />
<glyph unicode="&#x26;" horiz-adv-x="1421" d="M129 410q0 131 75 244t202 171q-97 86 -132.5 155t-35.5 161q0 142 102.5 242t253.5 100q136 0 236 -102.5t100 -239.5q0 -111 -72 -202.5t-207 -150.5l295 -272l172 453h156l-219 -555l325 -299l-90 -107l-297 268q-67 -147 -181 -226t-259 -79q-175 0 -299.5 128 t-124.5 311zM281 410q0 -131 78.5 -213t201.5 -82q95 0 174.5 62t153.5 194l-387 360q-108 -53 -164.5 -135.5t-56.5 -185.5zM387 1139q0 -67 36.5 -123.5t131.5 -132.5q113 44 169 110t56 154q0 85 -56.5 144t-135.5 59q-89 0 -145 -58t-56 -153z" />
<glyph unicode="'" horiz-adv-x="295" d="M98 881v553h101v-553h-101z" />
<glyph unicode="(" horiz-adv-x="541" d="M125 168v706q0 225 76 376.5t231 234.5v-162q-90 -72 -128 -171t-38 -302v-657q0 -204 38 -303t128 -171v-161q-155 82 -231 233.5t-76 376.5z" />
<glyph unicode=")" horiz-adv-x="541" d="M109 -281q90 72 127.5 171t37.5 303v657q0 203 -37.5 302t-127.5 171v162q155 -83 231 -234.5t76 -376.5v-706q0 -225 -76 -376.5t-231 -233.5v161z" />
<glyph unicode="*" horiz-adv-x="1024" d="M125 1128l37 119l291 -96v305h114v-305l289 96l41 -119l-301 -86l205 -251l-105 -74l-186 264l-182 -264l-107 74l201 251z" />
<glyph unicode="+" horiz-adv-x="1706" d="M254 561v98h551v562h98v-562h549v-98h-549v-561h-98v561h-551z" />
<glyph unicode="," horiz-adv-x="578" d="M104 -162l156 428h143l-155 -428h-144z" />
<glyph unicode="-" horiz-adv-x="659" d="M94 483v133h469v-133h-469z" />
<glyph unicode="." horiz-adv-x="578" d="M217 0v266h143v-266h-143z" />
<glyph unicode="/" horiz-adv-x="569" d="M-49 -190l498 1646h120l-497 -1646h-121z" />
<glyph unicode="0" d="M86 512v432q0 141 20 212.5t66 133.5q72 95 176.5 146t229.5 51q229 0 361 -142t132 -393v-446q0 -118 -19 -195.5t-61 -136.5q-69 -97 -177 -150t-236 -53q-125 0 -229 50.5t-179 146.5q-44 56 -64 136.5t-20 207.5zM227 481q0 -181 93 -282t258 -101q164 0 257 100 t93 279v502q0 178 -93.5 278.5t-256.5 100.5q-165 0 -258 -101.5t-93 -283.5v-492z" />
<glyph unicode="1" d="M270 1331v125h406v-1456h-152v1331h-254z" />
<glyph unicode="2" d="M133 0v141l516 490q153 145 202.5 229t49.5 174q0 137 -89.5 229.5t-227.5 92.5q-142 0 -227 -94.5t-85 -251.5q0 -8 1 -21t1 -20h-141v22q0 220 129.5 358t333.5 138q185 0 314.5 -133.5t129.5 -329.5q0 -113 -54.5 -216.5t-172.5 -213.5l-491 -453h714v-141h-903z" />
<glyph unicode="3" d="M109 442h145v-12q0 -144 89.5 -239t221.5 -95q143 0 235.5 94.5t92.5 241.5q0 167 -98 253.5t-287 86.5q-27 0 -41.5 -0.5t-25.5 -1.5v121q11 -1 24 -1.5t39 -0.5q144 0 216.5 59.5t72.5 177.5q0 102 -62 168t-156 66q-107 0 -168 -64.5t-63 -180.5h-133q9 170 109 270 t262 100q149 0 253.5 -106.5t104.5 -252.5q0 -87 -33.5 -151.5t-107.5 -118.5q119 -63 179 -165.5t60 -244.5q0 -201 -132.5 -338t-332.5 -137q-213 0 -337 126t-127 345z" />
<glyph unicode="4" d="M88 281v127l660 1048h163v-1048h158v-127h-158v-281h-141v281h-682zM238 408h536l6 880z" />
<glyph unicode="5" d="M84 442h145q8 -142 111 -241t240 -99q147 0 248.5 110.5t101.5 272.5q0 164 -101.5 265.5t-265.5 101.5q-93 0 -168 -41.5t-133 -126.5l-110 51l129 721h657v-143h-535l-73 -406q63 45 124.5 65.5t133.5 20.5q213 0 349 -144t136 -368q0 -212 -145.5 -361t-352.5 -149 q-197 0 -336 132.5t-155 338.5z" />
<glyph unicode="6" d="M84 451q0 174 180 452q18 27 27 41l330 512h178l-340 -526q47 11 86 16.5t71 5.5q198 0 327.5 -138t129.5 -347q0 -214 -141 -355t-357 -141q-212 0 -351.5 138.5t-139.5 341.5zM233 465q0 -154 104 -260.5t251 -106.5q143 0 239.5 103t96.5 262q0 158 -95.5 260 t-242.5 102q-150 0 -251.5 -104t-101.5 -256z" />
<glyph unicode="7" d="M205 1313v143h803v-131l-582 -1325h-160l576 1313h-637z" />
<glyph unicode="8" d="M113 434q0 125 51.5 214t169.5 165q-77 51 -116.5 123.5t-39.5 163.5q0 156 116.5 270.5t280.5 114.5q171 0 287.5 -111t116.5 -264q0 -100 -39.5 -172.5t-122.5 -124.5q115 -65 171 -155.5t56 -213.5q0 -206 -132.5 -339.5t-342.5 -133.5q-191 0 -323.5 134.5 t-132.5 328.5zM258 418q0 -139 90.5 -230.5t220.5 -91.5q143 0 235.5 93t92.5 235q0 146 -87 235t-230 89q-149 0 -235.5 -88.5t-86.5 -241.5zM322 1122q0 -108 68.5 -175.5t178.5 -67.5q131 0 201 61.5t70 177.5q0 105 -72.5 171.5t-185.5 66.5q-111 0 -185.5 -67 t-74.5 -167z" />
<glyph unicode="9" d="M84 991q0 215 140 355.5t356 140.5q212 0 352.5 -138.5t140.5 -340.5q0 -175 -180 -452q-17 -27 -26 -41l-330 -515h-179l340 528q-47 -11 -86 -16.5t-71 -5.5q-198 0 -327.5 138t-129.5 347zM233 995q0 -158 95.5 -260t242.5 -102q150 0 251.5 104t101.5 256 q0 154 -103.5 259.5t-251.5 105.5q-143 0 -239.5 -102t-96.5 -261z" />
<glyph unicode=":" horiz-adv-x="588" d="M223 0v266h142v-266h-142zM223 834v266h142v-266h-142z" />
<glyph unicode=";" horiz-adv-x="588" d="M104 -162l156 428h143l-155 -428h-144zM223 834v266h142v-266h-142z" />
<glyph unicode="&#x3c;" horiz-adv-x="1706" d="M264 569v82l1178 484v-109l-1022 -416l1022 -413v-109z" />
<glyph unicode="=" horiz-adv-x="1706" d="M254 375v98h1198v-98h-1198zM254 748v98h1198v-98h-1198z" />
<glyph unicode="&#x3e;" horiz-adv-x="1706" d="M264 88v109l1022 413l-1022 416v109l1178 -484v-82z" />
<glyph unicode="?" horiz-adv-x="948" d="M45 1012q3 214 122.5 343.5t313.5 129.5q181 0 294.5 -120t113.5 -310q0 -187 -166 -335q-16 -14 -25 -22q-82 -76 -116 -144.5t-35 -155.5l-144 -1q0 94 39 183t115 172q18 19 54 53q126 119 126 252q0 130 -70.5 204t-193.5 74q-130 0 -202 -83t-78 -240h-148zM403 0 v266h144v-266h-144z" />
<glyph unicode="@" horiz-adv-x="2048" d="M117 537q0 204 86 381.5t252 314.5q132 109 298.5 165t360.5 56q162 0 308 -44t249 -124q129 -99 194.5 -228t65.5 -280q0 -171 -62 -309.5t-181 -232.5q-70 -54 -149 -82.5t-161 -28.5q-97 0 -144.5 37.5t-47.5 113.5q0 4 1 14t1 15q-51 -87 -127 -133.5t-168 -46.5 q-153 0 -233 83.5t-80 244.5q0 230 135 388t329 158q94 0 158 -41t96 -122l60 125h94l-139 -562q-10 -44 -13.5 -62.5t-3.5 -29.5q0 -43 28.5 -67.5t78.5 -24.5q52 0 106.5 21t104.5 61q97 77 151 204.5t54 282.5q0 254 -198 417t-509 163q-175 0 -320 -49.5t-262 -149.5 q-147 -126 -222 -290.5t-75 -362.5q0 -174 60 -305t184 -232q102 -82 244 -128t301 -46q171 0 334.5 49.5t300.5 143.5l39 -55q-147 -111 -311 -166.5t-343 -55.5q-191 0 -347 46.5t-275 138.5q-155 118 -229 273.5t-74 361.5zM702 444q0 -111 55 -173t152 -62 q107 0 189.5 71.5t111.5 188.5l62 248q-18 93 -75.5 145.5t-139.5 52.5q-154 0 -254.5 -133.5t-100.5 -337.5z" />
<glyph unicode="A" horiz-adv-x="1223" d="M-51 0l565 1456h172l563 -1456h-153l-174 457h-648l-174 -457h-151zM324 588h548l-276 731z" />
<glyph unicode="B" horiz-adv-x="1042" d="M135 0v1456h271q247 0 363 -93.5t116 -291.5q0 -100 -39 -171t-117 -116q118 -49 177 -137.5t59 -216.5q0 -222 -122.5 -326t-385.5 -104h-322zM272 139h201q177 0 261.5 67t84.5 206t-86 207.5t-260 68.5h-201v-549zM272 827h86q212 0 296.5 58.5t84.5 191.5 q0 125 -82 182.5t-262 57.5h-123v-490z" />
<glyph unicode="C" horiz-adv-x="1540" d="M61 737q0 153 58 290t170 247q104 104 233.5 157.5t280.5 53.5q217 0 390.5 -106t274.5 -300h-172q-98 136 -219 200t-276 64q-243 0 -415.5 -180t-172.5 -428q0 -264 171.5 -445t416.5 -181q151 0 273 63t212 188h170q-100 -186 -268 -287.5t-377 -101.5 q-321 0 -535.5 219t-214.5 547z" />
<glyph unicode="D" horiz-adv-x="1366" d="M135 0v1456h414q171 0 287.5 -34t205.5 -109q125 -105 194 -257t69 -325q0 -193 -76 -351.5t-215 -258.5q-92 -65 -199 -93t-330 -28h-350zM276 137h297q278 0 428 156t150 442q0 143 -51 264t-146 203q-71 62 -159 88.5t-256 26.5h-263v-1180z" />
<glyph unicode="E" horiz-adv-x="1028" d="M135 0v1456h756v-143h-612v-510h612v-144h-612v-518h612v-141h-756z" />
<glyph unicode="F" horiz-adv-x="991" d="M135 0v1456h719v-143h-578v-510h578v-144h-578v-659h-141z" />
<glyph unicode="G" horiz-adv-x="1612" d="M61 737q0 153 58 290t170 247q108 107 239 159t291 52q212 0 380.5 -102.5t270.5 -292.5h-176q-103 131 -220.5 193.5t-262.5 62.5q-251 0 -424.5 -179.5t-173.5 -431.5q0 -268 173 -447t427 -179q200 0 358.5 128t206.5 332h-735v129h905q-18 -318 -229 -522.5 t-518 -204.5q-315 0 -527.5 220t-212.5 546z" />
<glyph unicode="H" horiz-adv-x="1251" d="M135 0v1456h144v-653h692v653h143v-1456h-143v664h-692v-664h-144z" />
<glyph unicode="I" horiz-adv-x="412" d="M133 0v1456h143v-1456h-143z" />
<glyph unicode="J" horiz-adv-x="915" d="M27 354h143q6 -108 69.5 -174.5t157.5 -66.5q133 0 188.5 84.5t55.5 337.5v921h143v-981q0 -128 -13.5 -200t-45.5 -125q-50 -86 -138.5 -133.5t-197.5 -47.5q-163 0 -262.5 105.5t-99.5 279.5z" />
<glyph unicode="K" horiz-adv-x="1100" d="M133 0v1456h141v-809l674 809h170l-588 -704l578 -752h-176l-494 645l-164 -196v-449h-141z" />
<glyph unicode="L" horiz-adv-x="844" d="M135 0v1456h144v-1315h512v-141h-656z" />
<glyph unicode="M" horiz-adv-x="1692" d="M143 0v1456h211l504 -1266l502 1266h211v-1456h-137v1286l-512 -1286h-129l-512 1286v-1286h-138z" />
<glyph unicode="N" horiz-adv-x="1366" d="M131 0v1456h172l799 -1282l-17 1282h142v-1456h-172l-799 1284l16 -1284h-141z" />
<glyph unicode="O" horiz-adv-x="1612" d="M61 737q0 152 58.5 290t169.5 247q107 105 235.5 158t278.5 53q153 0 283.5 -53.5t238.5 -159.5q111 -109 167 -244t56 -291q0 -155 -48 -284.5t-144 -235.5q-111 -122 -251 -184t-304 -62q-314 0 -527 220.5t-213 545.5zM211 735q0 -266 173 -446t427 -180 q248 0 419 182t171 448q0 248 -176 427.5t-424 179.5q-101 0 -194.5 -34.5t-172.5 -101.5q-104 -88 -163.5 -215t-59.5 -260z" />
<glyph unicode="P" horiz-adv-x="1034" d="M119 0v1456h309q133 0 213 -14t133 -45q96 -58 147.5 -150.5t51.5 -208.5q0 -110 -46.5 -203.5t-129.5 -148.5q-58 -39 -138.5 -56.5t-205.5 -17.5h-191v-612h-143zM262 758h211q176 0 260 67t84 207q0 146 -84.5 213.5t-271.5 67.5h-199v-555z" />
<glyph unicode="Q" horiz-adv-x="1612" d="M61 737q0 152 58.5 290t169.5 247q107 105 235.5 158t278.5 53q321 0 533 -218t212 -554q0 -162 -58 -294.5t-177 -244.5q45 -30 100.5 -43.5t132.5 -13.5h19v-127q-5 -1 -13 -1q-43 -3 -59 -3q-69 0 -146.5 26.5t-146.5 75.5q-89 -58 -188.5 -87.5t-208.5 -29.5 q-312 0 -527 220.5t-215 545.5zM211 743q0 -47 6 -93.5t19 -94.5q78 37 153 54.5t158 17.5q171 0 315.5 -77.5t339.5 -285.5q97 97 148 218.5t51 256.5q0 248 -176 427.5t-424 179.5q-240 0 -415 -181t-175 -422zM285 426q82 -150 222.5 -235t303.5 -85q67 0 134 18t140 54 q-184 192 -297.5 251.5t-255.5 59.5q-57 0 -116.5 -15t-130.5 -48z" />
<glyph unicode="R" horiz-adv-x="1139" d="M115 0v1456h391q129 0 207.5 -19.5t142.5 -64.5q87 -61 137.5 -163t50.5 -216q0 -169 -100.5 -291t-251.5 -133l352 -569h-170l-432 702h138q138 0 224.5 81t86.5 208q0 77 -26.5 140t-78.5 110q-43 39 -103.5 55.5t-215.5 16.5h-211v-1313h-141z" />
<glyph unicode="S" horiz-adv-x="952" d="M58 416h138q4 -135 76.5 -215t190.5 -80q127 0 201.5 79.5t74.5 215.5q0 198 -306 299l-36 12q-160 55 -230.5 139.5t-70.5 220.5q0 174 108.5 285t280.5 111q164 0 260 -101t107 -284h-135q-11 119 -71 183.5t-161 64.5q-108 0 -176.5 -70.5t-68.5 -179.5 q0 -57 20.5 -98.5t65.5 -75.5q46 -34 176 -76q75 -24 114 -39q142 -55 204.5 -140.5t62.5 -224.5q0 -212 -115.5 -341.5t-306.5 -129.5q-178 0 -289 122.5t-114 322.5z" />
<glyph unicode="T" horiz-adv-x="750" d="M12 1313v143h725v-143h-291v-1313h-143v1313h-291z" />
<glyph unicode="U" d="M113 530v926h143v-921q0 -107 8.5 -160t28.5 -94q39 -83 114.5 -130t170.5 -47q165 0 244 112.5t79 348.5v891h141v-926q0 -283 -112.5 -422t-341.5 -139q-245 0 -360 136t-115 425z" />
<glyph unicode="V" horiz-adv-x="1139" d="M-41 1456h143l461 -1241l463 1241h143l-548 -1456h-113z" />
<glyph unicode="W" horiz-adv-x="1665" d="M-31 1456h142l362 -1194l295 1194h131l293 -1194l364 1194h140l-451 -1456h-119l-292 1188l-293 -1188h-119z" />
<glyph unicode="X" horiz-adv-x="1165" d="M-6 0l506 733l-494 723h178l400 -604l399 604h176l-493 -723l505 -733h-180l-407 618l-414 -618h-176z" />
<glyph unicode="Y" horiz-adv-x="981" d="M-49 1456h164l372 -756l377 756h160l-467 -921v-535h-141v537z" />
<glyph unicode="Z" horiz-adv-x="938" d="M39 0v137l680 1176h-639v143h805v-137l-682 -1178h696v-141h-860z" />
<glyph unicode="[" horiz-adv-x="541" d="M133 -410v1866h332v-119h-191v-1630h191v-117h-332z" />
<glyph unicode="\" horiz-adv-x="569" d="M0 1456h119l499 -1646h-120z" />
<glyph unicode="]" horiz-adv-x="541" d="M76 -293h190v1630h-190v119h332v-1866h-332v117z" />
<glyph unicode="^" horiz-adv-x="2048" d="M422 901l532 557h140l530 -557h-143l-457 455l-459 -455h-143z" />
<glyph unicode="_" horiz-adv-x="1024" d="M0 -383h1024v-100h-1024v100z" />
<glyph unicode="`" horiz-adv-x="1024" d="M276 1597h152l209 -350h-92z" />
<glyph unicode="a" horiz-adv-x="1290" d="M57 545q0 247 164.5 413t411.5 166q127 0 233 -51.5t176 -148.5v176h138v-1100h-138v174q-66 -95 -178.5 -149t-242.5 -54q-242 0 -403 165.5t-161 408.5zM203 539q0 -184 124 -310.5t298 -126.5q168 0 292.5 133.5t124.5 321.5q0 175 -125 305.5t-288 130.5 q-177 0 -301.5 -130.5t-124.5 -323.5z" />
<glyph unicode="b" horiz-adv-x="1290" d="M109 0v1456h139v-459v-82q89 107 195 158t237 51q232 0 392.5 -167t160.5 -406q0 -247 -164 -413.5t-412 -166.5q-122 0 -223.5 48.5t-185.5 146.5v-166h-139zM248 539q0 -176 124.5 -306.5t286.5 -130.5q177 0 301.5 131t124.5 324q0 183 -124 309.5t-297 126.5 t-294.5 -132t-121.5 -322z" />
<glyph unicode="c" horiz-adv-x="1241" d="M57 547q0 244 166.5 413.5t405.5 169.5q179 0 315.5 -96.5t204.5 -271.5h-156q-65 120 -158.5 177.5t-222.5 57.5q-170 0 -288.5 -129t-118.5 -319t119 -317.5t294 -127.5q128 0 226 63t149 177h156q-64 -179 -201 -277t-323 -98q-239 0 -403.5 169.5t-164.5 408.5z" />
<glyph unicode="d" horiz-adv-x="1290" d="M57 551q0 242 161 407.5t403 165.5q130 0 236.5 -50.5t180.5 -147.5v245v285h142v-1456h-142v166q-74 -92 -184 -143.5t-233 -51.5q-238 0 -401 168t-163 412zM203 557q0 -193 124.5 -324t301.5 -131q163 0 288 131t125 306q0 188 -124.5 321t-292.5 133 q-174 0 -298 -126.5t-124 -309.5z" />
<glyph unicode="e" horiz-adv-x="1241" d="M53 551q0 251 162.5 415t415.5 164q248 0 404.5 -170.5t156.5 -443.5v-10h-993q13 -180 130 -291t292 -111q124 0 223 64.5t153 179.5h160q-76 -183 -213.5 -281t-318.5 -98q-240 0 -406 171t-166 411zM203 625h833q-40 185 -147 278.5t-279 93.5q-160 0 -271 -100.5 t-136 -271.5z" />
<glyph unicode="f" horiz-adv-x="563" d="M25 977v123h141v30q0 175 88.5 259t271.5 84h13v-127q-127 -2 -179.5 -50.5t-52.5 -165.5v-30h232v-123h-230v-977h-137v977h-147z" />
<glyph unicode="g" horiz-adv-x="1280" d="M53 553q0 243 162 408t401 165q139 0 240.5 -50t179.5 -156v180h138v-918q0 -288 -144.5 -450t-398.5 -162q-187 0 -321 92.5t-173 247.5h164q32 -96 116 -149.5t204 -53.5q188 0 301.5 125t113.5 334v29q-80 -109 -182 -164.5t-225 -55.5q-248 0 -412 165.5t-164 412.5z M203 559q0 -193 122.5 -323t295.5 -130q163 0 288 130.5t125 306.5q0 188 -123 321t-290 133q-172 0 -295 -126.5t-123 -311.5z" />
<glyph unicode="h" horiz-adv-x="1143" d="M111 0v1456h139v-485q61 75 146.5 113t191.5 38q232 0 338 -132.5t106 -430.5v-559h-139v561q0 239 -72 332.5t-241 93.5q-96 0 -168.5 -38.5t-114.5 -110.5q-26 -45 -36.5 -102.5t-10.5 -200.5v-535h-139z" />
<glyph unicode="i" horiz-adv-x="371" d="M115 0v1100h141v-1100h-141zM115 1229v227h141v-227h-141z" />
<glyph unicode="j" horiz-adv-x="371" d="M-20 -223q79 0 107 29.5t28 168.5v1125h141v-1104q0 -200 -55.5 -275t-190.5 -75h-30v131zM115 1229v227h141v-227h-141z" />
<glyph unicode="k" horiz-adv-x="848" d="M115 0v1456h141v-866l397 510h162l-399 -510l485 -590h-178l-467 573v-573h-141z" />
<glyph unicode="l" horiz-adv-x="371" d="M115 0v1456h141v-1456h-141z" />
<glyph unicode="m" horiz-adv-x="1907" d="M111 0v1100h139v-125q63 73 148.5 110t193.5 37q125 0 228 -52.5t157 -141.5q67 95 166.5 144.5t222.5 49.5q224 0 326 -134.5t102 -432.5v-555h-135v584q0 218 -72 310.5t-235 92.5q-94 0 -165.5 -38.5t-113.5 -110.5q-25 -45 -36 -102.5t-11 -200.5v-535h-133v616 q0 190 -77 280.5t-236 90.5q-96 0 -168.5 -38.5t-114.5 -110.5q-26 -45 -36.5 -102.5t-10.5 -200.5v-535h-139z" />
<glyph unicode="n" horiz-adv-x="1143" d="M113 0v1100h137v-125q65 75 150.5 111t195.5 36q121 0 215.5 -45t149.5 -129q38 -59 54.5 -138.5t16.5 -234.5v-575h-139v616q0 195 -74.5 283t-238.5 88q-96 0 -168.5 -38.5t-114.5 -110.5q-26 -45 -36.5 -102.5t-10.5 -200.5v-535h-137z" />
<glyph unicode="o" horiz-adv-x="1241" d="M53 549q0 242 166 414t393 172q239 0 407.5 -169t168.5 -403q0 -246 -165 -420t-400 -174q-239 0 -404.5 170.5t-165.5 409.5zM201 551q0 -190 121 -318.5t301 -128.5q177 0 297 128.5t120 320.5q0 195 -121.5 320.5t-308.5 125.5q-168 0 -288.5 -129t-120.5 -319z" />
<glyph unicode="p" horiz-adv-x="1290" d="M109 -356v1456h139v-180q60 93 171.5 148.5t237.5 55.5q249 0 412.5 -165.5t163.5 -413.5q0 -242 -161.5 -408t-403.5 -166q-134 0 -241.5 52t-178.5 151v-76v-164v-290h-139zM248 557q0 -188 124 -321.5t292 -133.5q173 0 297 126.5t124 310.5q0 193 -124.5 323.5 t-301.5 130.5q-163 0 -287 -131t-124 -305z" />
<glyph unicode="q" horiz-adv-x="1290" d="M57 545q0 247 164.5 413t411.5 166q125 0 229.5 -51.5t175.5 -148.5v176h142v-1456h-142v522q-70 -93 -179 -144t-238 -51q-242 0 -403 165.5t-161 408.5zM203 539q0 -184 124 -310.5t298 -126.5q168 0 292.5 133.5t124.5 321.5q0 175 -125 305.5t-288 130.5 q-177 0 -301.5 -130.5t-124.5 -323.5z" />
<glyph unicode="r" horiz-adv-x="512" d="M111 0v1100h133v-127q52 73 113.5 107t143.5 36l1 -153q-133 -12 -190.5 -79.5t-57.5 -219.5v-664h-143z" />
<glyph unicode="s" horiz-adv-x="797" d="M43 346h145v-4q0 -103 59 -170.5t146 -67.5q83 0 138 52t55 131t-43.5 127t-157.5 90q-183 65 -239 133t-56 182q0 129 93.5 219t226.5 90q141 0 224 -80t89 -223h-151q-5 78 -49.5 121t-121.5 43q-69 0 -115 -46.5t-46 -115.5q0 -49 19 -82.5t63 -60.5q40 -25 116.5 -48 t102.5 -34q103 -44 151.5 -117t48.5 -186q0 -142 -99 -235t-251 -93q-155 0 -249 101.5t-99 273.5z" />
<glyph unicode="t" horiz-adv-x="559" d="M0 958v142h209v356h141v-356h209v-142h-209v-958h-141v958h-209z" />
<glyph unicode="u" horiz-adv-x="1143" d="M109 526v574h139v-584q0 -225 73 -318.5t240 -93.5q95 0 167 38.5t116 111.5q25 43 36 101.5t11 203.5v541h141v-1100h-141v119q-64 -78 -143 -113t-191 -35q-238 0 -343 128.5t-105 426.5z" />
<glyph unicode="v" horiz-adv-x="977" d="M-16 1100h149l352 -887l355 887h153l-450 -1100h-129z" />
<glyph unicode="w" horiz-adv-x="1421" d="M-6 1100h147l269 -824l252 824h102l252 -824l266 824h150l-371 -1100h-92l-258 838l-254 -838h-92z" />
<glyph unicode="x" horiz-adv-x="848" d="M-31 0l373 571l-328 529h158l256 -416l274 416h162l-356 -527l354 -573h-160l-282 459l-295 -459h-156z" />
<glyph unicode="y" horiz-adv-x="944" d="M-33 1100h162l340 -893l356 893h164l-594 -1456h-151l147 358z" />
<glyph unicode="z" horiz-adv-x="825" d="M20 0v133l574 834h-510v133h666v-152l-562 -807h592v-141h-760z" />
<glyph unicode="{" horiz-adv-x="1024" d="M174 477v109q9 0 23.5 -1t21.5 -1q138 0 195 63t57 217v242q0 223 70 297t266 74h47v-107h-37q-131 0 -177 -49.5t-46 -204.5v-242q0 -168 -43.5 -240t-153.5 -104q110 -31 153.5 -103t43.5 -241v-241q0 -155 45 -204.5t170 -49.5q7 0 22 1t23 1v-107h-47 q-197 0 -266.5 72.5t-69.5 296.5v244q0 154 -57 217t-195 63q-7 0 -21.5 -1t-23.5 -1z" />
<glyph unicode="|" horiz-adv-x="1024" d="M459 -483v2048h108v-2048h-108z" />
<glyph unicode="}" horiz-adv-x="1024" d="M172 -307h39q130 0 175.5 49t45.5 203v241q0 171 43 242t154 102q-111 32 -154 103t-43 241v242q0 157 -45 206.5t-170 49.5q-7 0 -22 -1t-23 -1v107h47q196 0 266 -74t70 -297v-242q0 -154 57 -217t195 -63q7 0 22 1t23 1v-109q-8 0 -23 1t-22 1q-138 0 -195 -63 t-57 -217v-244q0 -223 -69.5 -296t-266.5 -73h-47v107z" />
<glyph unicode="~" horiz-adv-x="1706" d="M178 471v113q106 73 202 109t185 36q104 0 272 -61q11 -4 18 -7q9 -3 31 -11q167 -60 257 -60q85 0 177 38t210 122v-113q-102 -72 -198 -107.5t-189 -35.5q-99 0 -260 57q-20 7 -29 10q-5 2 -16 6q-176 64 -273 64q-83 0 -175 -38t-212 -122z" />
<glyph unicode="&#xa0;" />
<glyph unicode="&#xa1;" horiz-adv-x="588" d="M223 0v1075h142v-1075h-142zM223 1190v266h142v-266h-142z" />
<glyph unicode="&#xa2;" d="M70 723q0 222 130 382.5t337 192.5v211h133v-206q173 -20 287 -120t163 -274h-147q-42 134 -134 202.5t-231 68.5q-164 0 -278.5 -131.5t-114.5 -325.5q0 -193 115.5 -323t287.5 -130q129 0 224 74.5t131 204.5h147q-58 -181 -172.5 -283t-277.5 -119v-229h-133v232 q-202 28 -334.5 192t-132.5 381z" />
<glyph unicode="&#xa3;" d="M68 672v139h145q-22 69 -31.5 120t-9.5 95q0 196 131.5 326.5t333.5 130.5q173 0 287 -99.5t149 -279.5h-131q-26 119 -106.5 185.5t-196.5 66.5q-145 0 -236.5 -91.5t-91.5 -234.5q0 -48 13.5 -102t42.5 -117h493v-141h-385q42 -75 61 -144t19 -147q0 -74 -17 -133.5 t-54 -118.5q30 -3 58.5 -4.5t55.5 -1.5q188 0 278.5 69t90.5 213q0 19 -4 49.5t-13 77.5h142q8 -44 11 -70.5t3 -47.5q0 -91 -31.5 -171t-89.5 -137q-57 -55 -136.5 -79.5t-213.5 -24.5h-514v127h223q42 52 61 108.5t19 129.5q0 78 -23 147t-82 160h-251z" />
<glyph unicode="&#xa4;" horiz-adv-x="1241" d="M90 420l205 207q-45 61 -67.5 125.5t-22.5 132.5t22.5 133.5t67.5 126.5l-205 205l66 65l204 -205q60 46 124.5 68t136.5 22t138.5 -22.5t123.5 -67.5l204 205l66 -65l-205 -205q44 -59 66 -125t22 -135t-22 -134t-66 -124l205 -207l-66 -66l-204 205q-59 -45 -125 -67.5 t-137 -22.5t-135 22t-126 68l-204 -205zM297 887q0 -134 96 -230t230 -96q133 0 227 96t94 230q0 133 -94 227t-227 94q-134 0 -230 -94.5t-96 -226.5z" />
<glyph unicode="&#xa5;" d="M45 1446h162l375 -748l368 748h162l-260 -500h184v-110h-243l-88 -168h331v-111h-389v-557h-141v557h-391v111h334l-87 168h-247v110h188z" />
<glyph unicode="&#xa6;" horiz-adv-x="1024" d="M459 -350v758h108v-758h-108zM459 674v758h108v-758h-108z" />
<glyph unicode="&#xa7;" horiz-adv-x="1024" d="M109 694q0 99 48.5 171.5t149.5 125.5q-55 42 -79.5 91t-24.5 116q0 125 87.5 206t225.5 81q146 0 229.5 -83.5t83.5 -230.5v-24h-128q-2 105 -53 162t-144 57q-73 0 -117.5 -45.5t-44.5 -118.5q0 -57 35 -105.5t106 -90.5l203 -121q123 -73 174 -145t51 -169 q0 -88 -49 -159t-145 -121q53 -47 79.5 -104t26.5 -124q0 -123 -92 -202.5t-233 -79.5q-151 0 -240.5 85.5t-89.5 229.5q0 5 1 15.5t1 15.5h137v-12q0 -101 51 -156t144 -55q85 0 133.5 44t48.5 122q0 62 -33.5 108.5t-128.5 104.5l-215 133q-98 61 -148 131.5t-50 146.5z M248 729q0 -54 37 -106.5t106 -96.5l248 -157q67 45 97 89.5t30 100.5q0 62 -35 110.5t-121 102.5l-221 137q-68 -27 -104.5 -74t-36.5 -106z" />
<glyph unicode="&#xa8;" horiz-adv-x="1024" d="M256 1313v164h141v-164h-141zM625 1313v164h143v-164h-143z" />
<glyph unicode="&#xa9;" horiz-adv-x="1706" d="M121 723q0 145 56.5 279.5t162.5 242.5q101 103 232 157t280 54t283.5 -55.5t238.5 -159.5q102 -102 156.5 -235.5t54.5 -282.5q0 -150 -53.5 -281t-157.5 -233q-107 -106 -242 -162.5t-280 -56.5t-278 55.5t-238 161.5q-105 104 -160 237t-55 279zM201 723 q0 -129 49.5 -247t142.5 -212q94 -93 212 -142.5t247 -49.5q130 0 250.5 50t216.5 144q91 89 138.5 206t47.5 251q0 132 -48.5 251t-139.5 210q-94 94 -213 143t-252 49q-132 0 -249 -48t-208 -140q-94 -96 -144 -215.5t-50 -249.5zM469 727q0 203 107.5 326t283.5 123 q135 0 226.5 -72t103.5 -189h-117q-18 80 -75 124t-142 44q-122 0 -190 -95t-68 -267q0 -166 69 -260t189 -94q89 0 151 50.5t78 137.5h115q-11 -125 -108.5 -205t-241.5 -80q-177 0 -279 122t-102 335z" />
<glyph unicode="&#xaa;" horiz-adv-x="969" d="M43 1067q0 173 123 289.5t309 116.5q95 0 174.5 -36t132.5 -104v123h103v-770h-103v123q-49 -67 -134 -105t-183 -38q-181 0 -301.5 116t-120.5 285zM152 1063q0 -128 93.5 -216.5t223.5 -88.5q126 0 219.5 93t93.5 224q0 123 -94 215t-217 92q-132 0 -225.5 -92 t-93.5 -227z" />
<glyph unicode="&#xab;" horiz-adv-x="934" d="M115 549l245 321h138l-248 -321l248 -320h-138zM418 549l246 321h137l-246 -321l246 -320h-137z" />
<glyph unicode="&#xac;" horiz-adv-x="1706" d="M254 758v100h1198v-502h-96v402h-1102z" />
<glyph unicode="&#xad;" horiz-adv-x="659" d="M94 483v133h469v-133h-469z" />
<glyph unicode="&#xae;" horiz-adv-x="1706" d="M121 723q0 144 56.5 279.5t162.5 242.5q101 103 232 157t280 54q152 0 285.5 -55t236.5 -160q102 -102 156.5 -235.5t54.5 -282.5q0 -150 -53.5 -281t-157.5 -233q-107 -106 -242 -162.5t-280 -56.5q-147 0 -279.5 55.5t-236.5 161.5q-105 104 -160 237t-55 279zM201 723 q0 -129 49.5 -247t142.5 -212q94 -93 212 -142.5t247 -49.5q130 0 250.5 50t216.5 144q91 89 138.5 204.5t47.5 250.5q0 134 -48 253t-138 210q-94 93 -213.5 142.5t-253.5 49.5q-130 0 -246.5 -48t-208.5 -140q-95 -97 -145.5 -216.5t-50.5 -248.5zM565 313v844h309 q178 0 263.5 -57t85.5 -176q0 -89 -54 -149t-145 -73l188 -389h-145l-178 371h-197v-371h-127zM692 768h158q134 0 188 33.5t54 113.5q0 83 -57 119.5t-185 36.5h-158v-303z" />
<glyph unicode="&#xaf;" horiz-adv-x="1024" d="M256 1346v116h512v-116h-512z" />
<glyph unicode="&#xb0;" horiz-adv-x="674" d="M59 1174q0 116 81.5 197t197.5 81q115 0 195.5 -81.5t80.5 -196.5t-81.5 -197t-196.5 -82q-117 0 -197 81t-80 198zM129 1174q0 -87 61 -147t148 -60t147 60t60 147q0 86 -60.5 147t-146.5 61t-147.5 -61t-61.5 -147z" />
<glyph unicode="&#xb1;" horiz-adv-x="1706" d="M254 51v99h1198v-99h-1198zM254 723v98h551v348h98v-348h549v-98h-549v-348h-98v348h-551z" />
<glyph unicode="&#xb2;" horiz-adv-x="764" d="M88 582v84l340 295q97 81 131.5 133.5t34.5 107.5q0 83 -59 138t-150 55q-93 0 -149 -56.5t-56 -150.5v-25h-92v13q0 132 85.5 215.5t219.5 83.5q122 0 207.5 -80.5t85.5 -198.5q0 -69 -36 -131t-113 -127l-324 -272h471v-84h-596z" />
<glyph unicode="&#xb3;" horiz-adv-x="764" d="M72 848h96v-8q0 -87 59 -144t146 -57q94 0 155.5 57t61.5 146q0 99 -65 150.5t-189 51.5h-45v72q8 -1 16.5 -1.5t24.5 -0.5q94 0 142 36t48 107q0 61 -40.5 100.5t-102.5 39.5q-71 0 -110.5 -38.5t-41.5 -109.5h-88q6 104 71.5 164t172.5 60q99 0 168.5 -64t69.5 -152 q0 -52 -22.5 -90.5t-72.5 -70.5q80 -39 120 -100.5t40 -145.5q0 -121 -87.5 -203t-219.5 -82q-142 0 -223.5 75t-83.5 208z" />
<glyph unicode="&#xb4;" horiz-adv-x="1024" d="M387 1247l209 350h152l-269 -350h-92z" />
<glyph unicode="&#xb5;" horiz-adv-x="1110" d="M-111 -426l316 1491h139l-125 -592q-8 -39 -12 -73t-4 -66q0 -117 58 -180.5t167 -63.5q125 0 215 107.5t133 310.5l121 557h139l-164 -770q-12 -55 -17 -85t-5 -48q0 -33 17 -49.5t51 -16.5q7 0 16.5 0.5t19.5 1.5l-20 -110q-19 -5 -41 -8t-45 -3q-70 0 -103.5 36 t-33.5 110v14q-42 -77 -120 -119.5t-179 -42.5q-92 0 -161 40t-108 116l-114 -557h-140z" />
<glyph unicode="&#xb6;" horiz-adv-x="1024" d="M84 1130q0 157 107.5 253t285.5 96h463v-70h-127v-1409h-82v1409h-186v-1409h-84v782q-174 8 -275.5 102.5t-101.5 245.5z" />
<glyph unicode="&#xb7;" horiz-adv-x="578" d="M197 729q0 39 27 66.5t65 27.5t66 -28t28 -66t-27.5 -65t-66.5 -27t-65.5 27t-26.5 65z" />
<glyph unicode="&#xb8;" horiz-adv-x="1024" d="M272 -342q92 -20 145.5 -27.5t92.5 -7.5q64 0 96.5 22.5t32.5 67.5q0 55 -34.5 80t-108.5 25q-19 0 -28.5 -0.5t-18.5 -1.5v184h63v-111h20q107 0 163.5 -44t56.5 -128t-59 -130t-169 -46q-57 0 -116.5 9t-135.5 30v78z" />
<glyph unicode="&#xb9;" horiz-adv-x="764" d="M178 1380v76h268v-874h-100v798h-168z" />
<glyph unicode="&#xba;" horiz-adv-x="932" d="M41 1071q0 169 124 289.5t294 120.5q180 0 306 -118t126 -282q0 -173 -123.5 -294t-300.5 -121q-180 0 -303 119t-123 286zM152 1071q0 -133 90 -222t225 -89q133 0 223 89.5t90 223.5q0 136 -91 224.5t-230 88.5q-127 0 -217 -90.5t-90 -224.5z" />
<glyph unicode="&#xbb;" horiz-adv-x="934" d="M133 229l248 320l-248 321h137l246 -321l-246 -320h-137zM438 229l246 320l-246 321h135l248 -321l-248 -320h-135z" />
<glyph unicode="&#xbc;" horiz-adv-x="1800" d="M170 1386v70h256v-815h-96v745h-160zM387 -29l905 1514h119l-903 -1514h-121zM1126 158v69l416 588h103v-588h100v-69h-100v-158h-89v158h-430zM1221 227h338l4 494z" />
<glyph unicode="&#xbd;" horiz-adv-x="1800" d="M170 1386v70h256v-815h-96v745h-160zM387 -29l905 1514h119l-903 -1514h-121zM1155 0v80l326 272q96 82 126.5 129.5t30.5 98.5q0 76 -56 128t-142 52q-90 0 -143.5 -53t-53.5 -142v-22h-88v12q0 124 81.5 201.5t209.5 77.5q116 0 198 -75.5t82 -185.5q0 -63 -34 -121 t-109 -120l-309 -252h450v-80h-569z" />
<glyph unicode="&#xbe;" horiz-adv-x="1800" d="M68 889h92v-6q0 -81 56.5 -135t139.5 -54q90 0 148.5 53t58.5 136q0 93 -62 141.5t-182 48.5h-43l1 68q6 -1 15 -1.5t25 -0.5q91 0 137 33.5t46 99.5q0 57 -39.5 94t-98.5 37q-67 0 -106 -36.5t-39 -100.5h-84q6 95 69 151t165 56q94 0 159.5 -59.5t65.5 -141.5 q0 -49 -21 -85t-67 -67q75 -35 112 -92t37 -137q0 -112 -83.5 -189t-209.5 -77q-134 0 -211.5 70t-80.5 194zM387 -29l905 1514h119l-903 -1514h-121zM1126 158v69l416 588h103v-588h100v-69h-100v-158h-89v158h-430zM1221 227h338l4 494z" />
<glyph unicode="&#xbf;" horiz-adv-x="948" d="M45 399q0 188 167 338q15 13 24 21q82 76 116 144.5t35 155.5l143 1q0 -94 -38.5 -183t-114.5 -171q-18 -20 -54 -54q-126 -118 -126 -252q0 -130 70.5 -205t193.5 -75q129 0 201.5 84t78.5 241h148q-3 -213 -123 -343t-313 -130q-182 0 -295 119t-113 309zM387 1190v266 h143v-266h-143z" />
<glyph unicode="&#xc0;" horiz-adv-x="1223" d="M-51 0l565 1456h172l563 -1456h-153l-174 457h-648l-174 -457h-151zM324 588h548l-276 731zM362 1947h152l209 -350h-92z" />
<glyph unicode="&#xc1;" horiz-adv-x="1223" d="M-51 0l565 1456h172l563 -1456h-153l-174 457h-648l-174 -457h-151zM324 588h548l-276 731zM473 1597l209 350h152l-269 -350h-92z" />
<glyph unicode="&#xc2;" horiz-adv-x="1223" d="M-51 0l565 1456h172l563 -1456h-153l-174 457h-648l-174 -457h-151zM322 1597l200 350h152l200 -350h-92l-184 264l-184 -264h-92zM324 588h548l-276 731z" />
<glyph unicode="&#xc3;" horiz-adv-x="1223" d="M-51 0l565 1456h172l563 -1456h-153l-174 457h-648l-174 -457h-151zM309 1640q21 90 71.5 137.5t123.5 47.5q16 0 29 -2.5t24 -6.5l96 -30q13 -5 28 -8t28 -3q33 0 56 17.5t40 56.5h82q-26 -91 -74 -137.5t-117 -46.5q-14 0 -30 2.5t-35 7.5l-97 31q-15 4 -27.5 6 t-25.5 2q-30 0 -53.5 -19t-38.5 -55h-80zM324 588h548l-276 731z" />
<glyph unicode="&#xc4;" horiz-adv-x="1223" d="M-51 0l565 1456h172l563 -1456h-153l-174 457h-648l-174 -457h-151zM324 588h548l-276 731zM342 1663v164h141v-164h-141zM711 1663v164h143v-164h-143z" />
<glyph unicode="&#xc5;" horiz-adv-x="1223" d="M-51 0l565 1456h172l563 -1456h-153l-174 457h-648l-174 -457h-151zM324 588h548l-276 731zM371 1743q0 95 67 162t162 67t162 -67t67 -162t-67 -162.5t-162 -67.5q-96 0 -162.5 67t-66.5 163zM461 1743q0 -59 41 -100t100 -41q60 0 101.5 41t41.5 100t-42.5 102 t-100.5 43t-99.5 -42.5t-41.5 -102.5z" />
<glyph unicode="&#xc6;" horiz-adv-x="1810" d="M-135 0l1001 1456h824v-143h-613v-510h613v-144h-613v-518h613v-141h-756v483h-567l-330 -483h-172zM465 627h473l6 686h-16z" />
<glyph unicode="&#xc7;" horiz-adv-x="1540" d="M61 737q0 153 58 290t170 247q104 104 233.5 157.5t280.5 53.5q217 0 390.5 -106t274.5 -300h-172q-98 136 -219 200t-276 64q-243 0 -415.5 -180t-172.5 -428q0 -264 171.5 -445t416.5 -181q151 0 273 63t212 188h170q-100 -186 -268 -287.5t-377 -101.5 q-321 0 -535.5 219t-214.5 547zM561 -342q92 -20 145.5 -27.5t92.5 -7.5q64 0 96.5 22.5t32.5 67.5q0 55 -34.5 80t-108.5 25q-19 0 -28.5 -0.5t-18.5 -1.5v184h63v-111h20q107 0 163.5 -44t56.5 -128t-59 -130t-169 -46q-57 0 -116.5 9t-135.5 30v78z" />
<glyph unicode="&#xc8;" horiz-adv-x="1028" d="M135 0v1456h756v-143h-612v-510h612v-144h-612v-518h612v-141h-756zM292 1947h152l209 -350h-92z" />
<glyph unicode="&#xc9;" horiz-adv-x="1028" d="M135 0v1456h756v-143h-612v-510h612v-144h-612v-518h612v-141h-756zM403 1597l209 350h152l-269 -350h-92z" />
<glyph unicode="&#xca;" horiz-adv-x="1028" d="M135 0v1456h756v-143h-612v-510h612v-144h-612v-518h612v-141h-756zM252 1597l200 350h152l200 -350h-92l-184 264l-184 -264h-92z" />
<glyph unicode="&#xcb;" horiz-adv-x="1028" d="M135 0v1456h756v-143h-612v-510h612v-144h-612v-518h612v-141h-756zM272 1663v164h141v-164h-141zM641 1663v164h143v-164h-143z" />
<glyph unicode="&#xcc;" horiz-adv-x="412" d="M-29 1947h152l209 -350h-92zM133 0v1456h143v-1456h-143z" />
<glyph unicode="&#xcd;" horiz-adv-x="412" d="M82 1597l209 350h152l-269 -350h-92zM133 0v1456h143v-1456h-143z" />
<glyph unicode="&#xce;" horiz-adv-x="412" d="M-69 1597l200 350h152l200 -350h-92l-184 264l-184 -264h-92zM133 0v1456h143v-1456h-143z" />
<glyph unicode="&#xcf;" horiz-adv-x="412" d="M-49 1663v164h141v-164h-141zM133 0v1456h143v-1456h-143zM320 1663v164h143v-164h-143z" />
<glyph unicode="&#xd0;" horiz-adv-x="1380" d="M-4 668v127h154v661h438q328 0 529.5 -203t201.5 -530q0 -184 -76 -338.5t-219 -259.5q-91 -68 -194 -96.5t-302 -28.5h-378v668h-154zM291 137h336q245 0 391.5 163t146.5 435q0 268 -151.5 425t-413.5 157h-309v-522h358v-127h-358v-531z" />
<glyph unicode="&#xd1;" horiz-adv-x="1366" d="M131 0v1456h172l799 -1282l-17 1282h142v-1456h-172l-799 1284l16 -1284h-141zM395 1640q21 90 71.5 137.5t123.5 47.5q16 0 29 -2.5t24 -6.5l96 -30q13 -5 28 -8t28 -3q33 0 56 17.5t40 56.5h82q-26 -91 -74 -137.5t-117 -46.5q-14 0 -30 2.5t-35 7.5l-97 31 q-15 4 -27.5 6t-25.5 2q-30 0 -53.5 -19t-38.5 -55h-80z" />
<glyph unicode="&#xd2;" horiz-adv-x="1612" d="M61 737q0 152 58.5 290t169.5 247q107 105 235.5 158t278.5 53q153 0 283.5 -53.5t238.5 -159.5q111 -109 167 -244t56 -291q0 -155 -48 -284.5t-144 -235.5q-111 -122 -251 -184t-304 -62q-314 0 -527 220.5t-213 545.5zM211 735q0 -266 173 -446t427 -180 q248 0 419 182t171 448q0 248 -176 427.5t-424 179.5q-101 0 -194.5 -34.5t-172.5 -101.5q-104 -88 -163.5 -215t-59.5 -260zM571 1947h152l209 -350h-92z" />
<glyph unicode="&#xd3;" horiz-adv-x="1612" d="M61 737q0 152 58.5 290t169.5 247q107 105 235.5 158t278.5 53q153 0 283.5 -53.5t238.5 -159.5q111 -109 167 -244t56 -291q0 -155 -48 -284.5t-144 -235.5q-111 -122 -251 -184t-304 -62q-314 0 -527 220.5t-213 545.5zM211 735q0 -266 173 -446t427 -180 q248 0 419 182t171 448q0 248 -176 427.5t-424 179.5q-101 0 -194.5 -34.5t-172.5 -101.5q-104 -88 -163.5 -215t-59.5 -260zM682 1597l209 350h152l-269 -350h-92z" />
<glyph unicode="&#xd4;" horiz-adv-x="1612" d="M61 737q0 152 58.5 290t169.5 247q107 105 235.5 158t278.5 53q153 0 283.5 -53.5t238.5 -159.5q111 -109 167 -244t56 -291q0 -155 -48 -284.5t-144 -235.5q-111 -122 -251 -184t-304 -62q-314 0 -527 220.5t-213 545.5zM211 735q0 -266 173 -446t427 -180 q248 0 419 182t171 448q0 248 -176 427.5t-424 179.5q-101 0 -194.5 -34.5t-172.5 -101.5q-104 -88 -163.5 -215t-59.5 -260zM531 1597l200 350h152l200 -350h-92l-184 264l-184 -264h-92z" />
<glyph unicode="&#xd5;" horiz-adv-x="1612" d="M61 737q0 152 58.5 290t169.5 247q107 105 235.5 158t278.5 53q153 0 283.5 -53.5t238.5 -159.5q111 -109 167 -244t56 -291q0 -155 -48 -284.5t-144 -235.5q-111 -122 -251 -184t-304 -62q-314 0 -527 220.5t-213 545.5zM211 735q0 -266 173 -446t427 -180 q248 0 419 182t171 448q0 248 -176 427.5t-424 179.5q-101 0 -194.5 -34.5t-172.5 -101.5q-104 -88 -163.5 -215t-59.5 -260zM518 1640q21 90 71.5 137.5t123.5 47.5q16 0 29 -2.5t24 -6.5l96 -30q13 -5 28 -8t28 -3q33 0 56 17.5t40 56.5h82q-26 -91 -74 -137.5t-117 -46.5 q-14 0 -30 2.5t-35 7.5l-97 31q-15 4 -27.5 6t-25.5 2q-30 0 -53.5 -19t-38.5 -55h-80z" />
<glyph unicode="&#xd6;" horiz-adv-x="1612" d="M61 737q0 152 58.5 290t169.5 247q107 105 235.5 158t278.5 53q153 0 283.5 -53.5t238.5 -159.5q111 -109 167 -244t56 -291q0 -155 -48 -284.5t-144 -235.5q-111 -122 -251 -184t-304 -62q-314 0 -527 220.5t-213 545.5zM211 735q0 -266 173 -446t427 -180 q248 0 419 182t171 448q0 248 -176 427.5t-424 179.5q-101 0 -194.5 -34.5t-172.5 -101.5q-104 -88 -163.5 -215t-59.5 -260zM551 1663v164h141v-164h-141zM920 1663v164h143v-164h-143z" />
<glyph unicode="&#xd7;" horiz-adv-x="1706" d="M305 129l481 481l-481 482l70 69l481 -481l481 481l70 -69l-481 -482l481 -481l-70 -70l-481 482l-481 -482z" />
<glyph unicode="&#xd8;" horiz-adv-x="1612" d="M63 739q0 153 58 289t170 246q107 105 237.5 158t284.5 53q122 0 226.5 -34.5t201.5 -107.5l172 207l96 -75l-178 -213q108 -104 162.5 -235.5t54.5 -289.5q0 -327 -214 -545.5t-531 -218.5q-123 0 -222.5 33t-203.5 107l-207 -250l-94 78l207 247q-110 119 -165 257 t-55 294zM215 735q0 -126 42 -238.5t120 -193.5l770 928q-81 60 -159 87.5t-171 27.5q-254 0 -428 -179.5t-174 -431.5zM469 223q85 -58 166 -85t168 -27q253 0 425.5 181t172.5 443q0 119 -41 221t-123 191z" />
<glyph unicode="&#xd9;" d="M113 530v926h143v-921q0 -107 8.5 -160t28.5 -94q39 -83 114.5 -130t170.5 -47q165 0 244 112.5t79 348.5v891h141v-926q0 -283 -112.5 -422t-341.5 -139q-245 0 -360 136t-115 425zM344 1947h152l209 -350h-92z" />
<glyph unicode="&#xda;" d="M113 530v926h143v-921q0 -107 8.5 -160t28.5 -94q39 -83 114.5 -130t170.5 -47q165 0 244 112.5t79 348.5v891h141v-926q0 -283 -112.5 -422t-341.5 -139q-245 0 -360 136t-115 425zM455 1597l209 350h152l-269 -350h-92z" />
<glyph unicode="&#xdb;" d="M113 530v926h143v-921q0 -107 8.5 -160t28.5 -94q39 -83 114.5 -130t170.5 -47q165 0 244 112.5t79 348.5v891h141v-926q0 -283 -112.5 -422t-341.5 -139q-245 0 -360 136t-115 425zM304 1597l200 350h152l200 -350h-92l-184 264l-184 -264h-92z" />
<glyph unicode="&#xdc;" d="M113 530v926h143v-921q0 -107 8.5 -160t28.5 -94q39 -83 114.5 -130t170.5 -47q165 0 244 112.5t79 348.5v891h141v-926q0 -283 -112.5 -422t-341.5 -139q-245 0 -360 136t-115 425zM324 1663v164h141v-164h-141zM693 1663v164h143v-164h-143z" />
<glyph unicode="&#xdd;" horiz-adv-x="981" d="M-49 1456h164l372 -756l377 756h160l-467 -921v-535h-141v537zM367 1597l209 350h152l-269 -350h-92z" />
<glyph unicode="&#xde;" horiz-adv-x="1034" d="M119 0v1456h143v-282h193q124 0 194 -12.5t119 -41.5q94 -56 149.5 -152t55.5 -206q0 -198 -139 -315t-381 -117h-191v-330h-143zM262 477h211q170 0 256 70t86 209q0 70 -28 129.5t-78 95.5q-37 26 -85 37.5t-163 11.5h-199v-553z" />
<glyph unicode="&#xdf;" horiz-adv-x="1200" d="M115 0v965q0 257 101.5 381t311.5 124q186 0 303 -112.5t117 -288.5q0 -101 -39.5 -170t-109.5 -90q163 -38 251.5 -140.5t88.5 -254.5q0 -189 -130 -316t-325 -127q-158 0 -262.5 77.5t-165.5 240.5v-289h-141zM256 358h139q40 -128 113 -192t180 -64q122 0 211.5 85.5 t89.5 201.5q0 147 -100 222t-295 75h-90v115h6q134 0 211.5 72t77.5 196q0 117 -77.5 191.5t-197.5 74.5q-124 0 -196 -75.5t-72 -206.5v-72v-623z" />
<glyph unicode="&#xe0;" horiz-adv-x="1290" d="M57 545q0 247 164.5 413t411.5 166q127 0 233 -51.5t176 -148.5v176h138v-1100h-138v174q-66 -95 -178.5 -149t-242.5 -54q-242 0 -403 165.5t-161 408.5zM203 539q0 -184 124 -310.5t298 -126.5q168 0 292.5 133.5t124.5 321.5q0 175 -125 305.5t-288 130.5 q-177 0 -301.5 -130.5t-124.5 -323.5zM399 1597h152l209 -350h-92z" />
<glyph unicode="&#xe1;" horiz-adv-x="1290" d="M57 545q0 247 164.5 413t411.5 166q127 0 233 -51.5t176 -148.5v176h138v-1100h-138v174q-66 -95 -178.5 -149t-242.5 -54q-242 0 -403 165.5t-161 408.5zM203 539q0 -184 124 -310.5t298 -126.5q168 0 292.5 133.5t124.5 321.5q0 175 -125 305.5t-288 130.5 q-177 0 -301.5 -130.5t-124.5 -323.5zM510 1247l209 350h152l-269 -350h-92z" />
<glyph unicode="&#xe2;" horiz-adv-x="1290" d="M57 545q0 247 164.5 413t411.5 166q127 0 233 -51.5t176 -148.5v176h138v-1100h-138v174q-66 -95 -178.5 -149t-242.5 -54q-242 0 -403 165.5t-161 408.5zM203 539q0 -184 124 -310.5t298 -126.5q168 0 292.5 133.5t124.5 321.5q0 175 -125 305.5t-288 130.5 q-177 0 -301.5 -130.5t-124.5 -323.5zM359 1247l200 350h152l200 -350h-92l-184 264l-184 -264h-92z" />
<glyph unicode="&#xe3;" horiz-adv-x="1290" d="M57 545q0 247 164.5 413t411.5 166q127 0 233 -51.5t176 -148.5v176h138v-1100h-138v174q-66 -95 -178.5 -149t-242.5 -54q-242 0 -403 165.5t-161 408.5zM203 539q0 -184 124 -310.5t298 -126.5q168 0 292.5 133.5t124.5 321.5q0 175 -125 305.5t-288 130.5 q-177 0 -301.5 -130.5t-124.5 -323.5zM346 1290q21 90 71.5 137.5t123.5 47.5q16 0 29 -2.5t24 -6.5l96 -30q13 -5 28 -8t28 -3q33 0 56 17.5t40 56.5h82q-26 -91 -74 -137.5t-117 -46.5q-14 0 -30 2.5t-35 7.5l-97 31q-15 4 -27.5 6t-25.5 2q-30 0 -53.5 -19t-38.5 -55h-80 z" />
<glyph unicode="&#xe4;" horiz-adv-x="1290" d="M57 545q0 247 164.5 413t411.5 166q127 0 233 -51.5t176 -148.5v176h138v-1100h-138v174q-66 -95 -178.5 -149t-242.5 -54q-242 0 -403 165.5t-161 408.5zM203 539q0 -184 124 -310.5t298 -126.5q168 0 292.5 133.5t124.5 321.5q0 175 -125 305.5t-288 130.5 q-177 0 -301.5 -130.5t-124.5 -323.5zM379 1313v164h141v-164h-141zM748 1313v164h143v-164h-143z" />
<glyph unicode="&#xe5;" horiz-adv-x="1290" d="M57 545q0 247 164.5 413t411.5 166q127 0 233 -51.5t176 -148.5v176h138v-1100h-138v174q-66 -95 -178.5 -149t-242.5 -54q-242 0 -403 165.5t-161 408.5zM203 539q0 -184 124 -310.5t298 -126.5q168 0 292.5 133.5t124.5 321.5q0 175 -125 305.5t-288 130.5 q-177 0 -301.5 -130.5t-124.5 -323.5zM416 1411q0 95 67 162t162 67q96 0 164 -67t68 -162t-68 -162t-164 -67t-162.5 66.5t-66.5 162.5zM506 1413q0 -59 41.5 -101t99.5 -42q59 0 101.5 42t42.5 101q0 58 -42.5 100.5t-101.5 42.5q-58 0 -99.5 -41.5t-41.5 -101.5z" />
<glyph unicode="&#xe6;" horiz-adv-x="2228" d="M57 545q0 247 164.5 413t411.5 166q114 0 212.5 -44t192.5 -138v158h142v-162q91 95 198.5 140.5t237.5 45.5q245 0 402 -169.5t157 -438.5v-14h-987q13 -177 131 -288.5t289 -111.5q123 0 221.5 63.5t152.5 178.5h158q-75 -181 -211.5 -278t-316.5 -97q-136 0 -241.5 45 t-190.5 140v-154h-142v154q-88 -95 -189.5 -140t-227.5 -45q-242 0 -403 166.5t-161 409.5zM203 539q0 -184 124 -310.5t298 -126.5q168 0 292.5 133.5t124.5 321.5q0 176 -125.5 308t-287.5 132q-176 0 -301 -132.5t-125 -325.5zM1192 625h831q-36 177 -144.5 274.5 t-268.5 97.5q-164 0 -276 -99.5t-142 -272.5z" />
<glyph unicode="&#xe7;" horiz-adv-x="1241" d="M57 547q0 244 166.5 413.5t405.5 169.5q179 0 315.5 -96.5t204.5 -271.5h-156q-65 120 -158.5 177.5t-222.5 57.5q-170 0 -288.5 -129t-118.5 -319t119 -317.5t294 -127.5q128 0 226 63t149 177h156q-64 -179 -201 -277t-323 -98q-239 0 -403.5 169.5t-164.5 408.5z M381 -342q92 -20 145.5 -27.5t92.5 -7.5q64 0 96.5 22.5t32.5 67.5q0 55 -34.5 80t-108.5 25q-19 0 -28.5 -0.5t-18.5 -1.5v184h63v-111h20q107 0 163.5 -44t56.5 -128t-59 -130t-169 -46q-57 0 -116.5 9t-135.5 30v78z" />
<glyph unicode="&#xe8;" horiz-adv-x="1241" d="M53 551q0 251 162.5 415t415.5 164q248 0 404.5 -170.5t156.5 -443.5v-10h-993q13 -180 130 -291t292 -111q124 0 223 64.5t153 179.5h160q-76 -183 -213.5 -281t-318.5 -98q-240 0 -406 171t-166 411zM203 625h833q-40 185 -147 278.5t-279 93.5q-160 0 -271 -100.5 t-136 -271.5zM397 1597h152l209 -350h-92z" />
<glyph unicode="&#xe9;" horiz-adv-x="1241" d="M53 551q0 251 162.5 415t415.5 164q248 0 404.5 -170.5t156.5 -443.5v-10h-993q13 -180 130 -291t292 -111q124 0 223 64.5t153 179.5h160q-76 -183 -213.5 -281t-318.5 -98q-240 0 -406 171t-166 411zM203 625h833q-40 185 -147 278.5t-279 93.5q-160 0 -271 -100.5 t-136 -271.5zM508 1247l209 350h152l-269 -350h-92z" />
<glyph unicode="&#xea;" horiz-adv-x="1241" d="M53 551q0 251 162.5 415t415.5 164q248 0 404.5 -170.5t156.5 -443.5v-10h-993q13 -180 130 -291t292 -111q124 0 223 64.5t153 179.5h160q-76 -183 -213.5 -281t-318.5 -98q-240 0 -406 171t-166 411zM203 625h833q-40 185 -147 278.5t-279 93.5q-160 0 -271 -100.5 t-136 -271.5zM357 1247l200 350h152l200 -350h-92l-184 264l-184 -264h-92z" />
<glyph unicode="&#xeb;" horiz-adv-x="1241" d="M53 551q0 251 162.5 415t415.5 164q248 0 404.5 -170.5t156.5 -443.5v-10h-993q13 -180 130 -291t292 -111q124 0 223 64.5t153 179.5h160q-76 -183 -213.5 -281t-318.5 -98q-240 0 -406 171t-166 411zM203 625h833q-40 185 -147 278.5t-279 93.5q-160 0 -271 -100.5 t-136 -271.5zM377 1313v164h141v-164h-141zM746 1313v164h143v-164h-143z" />
<glyph unicode="&#xec;" horiz-adv-x="371" d="M-50 1597h152l209 -350h-92zM115 0v1100h141v-1100h-141z" />
<glyph unicode="&#xed;" horiz-adv-x="371" d="M61 1247l209 350h152l-269 -350h-92zM115 0v1100h141v-1100h-141z" />
<glyph unicode="&#xee;" horiz-adv-x="371" d="M-90 1247l200 350h152l200 -350h-92l-184 264l-184 -264h-92zM115 0v1100h141v-1100h-141z" />
<glyph unicode="&#xef;" horiz-adv-x="371" d="M-70 1313v164h141v-164h-141zM115 0v1100h141v-1100h-141zM299 1313v164h143v-164h-143z" />
<glyph unicode="&#xf0;" horiz-adv-x="1241" d="M53 510q0 222 166 382.5t393 160.5q100 0 188 -32.5t183 -105.5q-34 92 -91 169.5t-136 138.5l-269 -99l-36 82l223 84q-34 21 -74 42.5t-86 43.5l43 92q77 -34 136 -65.5t110 -65.5l287 103l34 -80l-237 -88q146 -136 223.5 -310.5t77.5 -369.5q0 -279 -158 -450 t-409 -171q-238 0 -403 159t-165 380zM203 518q0 -177 120 -295.5t300 -118.5q179 0 298 121t119 305q0 173 -122 289.5t-306 116.5q-167 0 -288 -121.5t-121 -296.5z" />
<glyph unicode="&#xf1;" horiz-adv-x="1143" d="M113 0v1100h137v-125q65 75 150.5 111t195.5 36q121 0 215.5 -45t149.5 -129q38 -59 54.5 -138.5t16.5 -234.5v-575h-139v616q0 195 -74.5 283t-238.5 88q-96 0 -168.5 -38.5t-114.5 -110.5q-26 -45 -36.5 -102.5t-10.5 -200.5v-535h-137zM295 1290q21 90 71.5 137.5 t123.5 47.5q16 0 29 -2.5t24 -6.5l96 -30q13 -5 28 -8t28 -3q33 0 56 17.5t40 56.5h82q-26 -91 -74 -137.5t-117 -46.5q-14 0 -30 2.5t-35 7.5l-97 31q-15 4 -27.5 6t-25.5 2q-30 0 -53.5 -19t-38.5 -55h-80z" />
<glyph unicode="&#xf2;" horiz-adv-x="1241" d="M53 549q0 242 166 414t393 172q239 0 407.5 -169t168.5 -403q0 -246 -165 -420t-400 -174q-239 0 -404.5 170.5t-165.5 409.5zM201 551q0 -190 121 -318.5t301 -128.5q177 0 297 128.5t120 320.5q0 195 -121.5 320.5t-308.5 125.5q-168 0 -288.5 -129t-120.5 -319z M395 1597h152l209 -350h-92z" />
<glyph unicode="&#xf3;" horiz-adv-x="1241" d="M53 549q0 242 166 414t393 172q239 0 407.5 -169t168.5 -403q0 -246 -165 -420t-400 -174q-239 0 -404.5 170.5t-165.5 409.5zM201 551q0 -190 121 -318.5t301 -128.5q177 0 297 128.5t120 320.5q0 195 -121.5 320.5t-308.5 125.5q-168 0 -288.5 -129t-120.5 -319z M506 1247l209 350h152l-269 -350h-92z" />
<glyph unicode="&#xf4;" horiz-adv-x="1241" d="M53 549q0 242 166 414t393 172q239 0 407.5 -169t168.5 -403q0 -246 -165 -420t-400 -174q-239 0 -404.5 170.5t-165.5 409.5zM201 551q0 -190 121 -318.5t301 -128.5q177 0 297 128.5t120 320.5q0 195 -121.5 320.5t-308.5 125.5q-168 0 -288.5 -129t-120.5 -319z M355 1247l200 350h152l200 -350h-92l-184 264l-184 -264h-92z" />
<glyph unicode="&#xf5;" horiz-adv-x="1241" d="M53 549q0 242 166 414t393 172q239 0 407.5 -169t168.5 -403q0 -246 -165 -420t-400 -174q-239 0 -404.5 170.5t-165.5 409.5zM201 551q0 -190 121 -318.5t301 -128.5q177 0 297 128.5t120 320.5q0 195 -121.5 320.5t-308.5 125.5q-168 0 -288.5 -129t-120.5 -319z M342 1290q21 90 71.5 137.5t123.5 47.5q16 0 29 -2.5t24 -6.5l96 -30q13 -5 28 -8t28 -3q33 0 56 17.5t40 56.5h82q-26 -91 -74 -137.5t-117 -46.5q-14 0 -30 2.5t-35 7.5l-97 31q-15 4 -27.5 6t-25.5 2q-30 0 -53.5 -19t-38.5 -55h-80z" />
<glyph unicode="&#xf6;" horiz-adv-x="1241" d="M53 549q0 242 166 414t393 172q239 0 407.5 -169t168.5 -403q0 -246 -165 -420t-400 -174q-239 0 -404.5 170.5t-165.5 409.5zM201 551q0 -190 121 -318.5t301 -128.5q177 0 297 128.5t120 320.5q0 195 -121.5 320.5t-308.5 125.5q-168 0 -288.5 -129t-120.5 -319z M375 1313v164h141v-164h-141zM744 1313v164h143v-164h-143z" />
<glyph unicode="&#xf7;" horiz-adv-x="1706" d="M254 561v98h1198v-98h-1198zM748 258q0 44 31 75.5t75 31.5q45 0 76 -31t31 -76q0 -44 -31 -75t-76 -31t-75.5 31t-30.5 75zM748 963q0 44 31.5 76t74.5 32q44 0 75.5 -32t31.5 -76q0 -45 -31 -76t-76 -31t-75.5 30.5t-30.5 76.5z" />
<glyph unicode="&#xf8;" horiz-adv-x="1241" d="M31 -57l176 211q-73 77 -113.5 181t-40.5 214q0 244 165.5 414t402.5 170q89 0 170 -26t149 -75l168 201l92 -72l-172 -207q77 -78 118.5 -181.5t41.5 -217.5q0 -242 -167 -414t-411 -172q-87 0 -163.5 25.5t-153.5 79.5l-178 -211zM201 551q0 -84 23.5 -156t70.5 -135 l557 666q-41 35 -101 54t-128 19q-180 0 -301 -127t-121 -321zM381 180q53 -39 107.5 -57.5t119.5 -18.5q189 0 310.5 126.5t121.5 324.5q0 82 -24 154t-74 141z" />
<glyph unicode="&#xf9;" horiz-adv-x="1143" d="M109 526v574h139v-584q0 -225 73 -318.5t240 -93.5q95 0 167 38.5t116 111.5q25 43 36 101.5t11 203.5v541h141v-1100h-141v119q-64 -78 -143 -113t-191 -35q-238 0 -343 128.5t-105 426.5zM329 1597h152l209 -350h-92z" />
<glyph unicode="&#xfa;" horiz-adv-x="1143" d="M109 526v574h139v-584q0 -225 73 -318.5t240 -93.5q95 0 167 38.5t116 111.5q25 43 36 101.5t11 203.5v541h141v-1100h-141v119q-64 -78 -143 -113t-191 -35q-238 0 -343 128.5t-105 426.5zM440 1247l209 350h152l-269 -350h-92z" />
<glyph unicode="&#xfb;" horiz-adv-x="1143" d="M109 526v574h139v-584q0 -225 73 -318.5t240 -93.5q95 0 167 38.5t116 111.5q25 43 36 101.5t11 203.5v541h141v-1100h-141v119q-64 -78 -143 -113t-191 -35q-238 0 -343 128.5t-105 426.5zM289 1247l200 350h152l200 -350h-92l-184 264l-184 -264h-92z" />
<glyph unicode="&#xfc;" horiz-adv-x="1143" d="M109 526v574h139v-584q0 -225 73 -318.5t240 -93.5q95 0 167 38.5t116 111.5q25 43 36 101.5t11 203.5v541h141v-1100h-141v119q-64 -78 -143 -113t-191 -35q-238 0 -343 128.5t-105 426.5zM309 1313v164h141v-164h-141zM678 1313v164h143v-164h-143z" />
<glyph unicode="&#xfd;" horiz-adv-x="944" d="M-33 1100h162l340 -893l356 893h164l-594 -1456h-151l147 358zM348 1247l209 350h152l-269 -350h-92z" />
<glyph unicode="&#xfe;" horiz-adv-x="1290" d="M109 -356v1812h143l-4 -536q60 93 171.5 148.5t237.5 55.5q246 0 411 -164t165 -401q0 -254 -160 -421t-405 -167q-134 0 -241.5 52.5t-174.5 150.5v-240v-290h-143zM248 551q0 -183 125 -316t291 -133q173 0 297 126.5t124 310.5q0 194 -124 324t-302 130 q-165 0 -288 -131t-123 -311z" />
<glyph unicode="&#xff;" horiz-adv-x="944" d="M-33 1100h162l340 -893l356 893h164l-594 -1456h-151l147 358zM217 1313v164h141v-164h-141zM586 1313v164h143v-164h-143z" />
<glyph unicode="&#x152;" horiz-adv-x="2232" d="M61 737q0 152 58.5 290t169.5 247q107 105 235.5 158t278.5 53q184 0 334 -74t256 -217v262h755v-143h-612v-510h612v-144h-612v-518h612v-141h-755v260q-124 -148 -268 -218.5t-324 -70.5q-314 0 -527 220.5t-213 545.5zM211 735q0 -266 173 -446t427 -180 q248 0 419 182t171 448q0 248 -176 427.5t-424 179.5q-101 0 -194.5 -34.5t-172.5 -101.5q-104 -88 -163.5 -215t-59.5 -260z" />
<glyph unicode="&#x153;" horiz-adv-x="2228" d="M53 549q0 244 167 414t407 170q155 0 283 -78.5t204 -220.5q82 141 213.5 220t286.5 79q247 0 404 -174t157 -453v-4h-987q13 -176 131 -287t289 -111q124 0 222 63t152 177h158q-73 -181 -212.5 -278t-325.5 -97q-161 0 -283.5 75.5t-204.5 223.5q-78 -149 -201.5 -224 t-289.5 -75q-240 0 -405 170t-165 410zM201 551q0 -190 121 -318.5t301 -128.5q177 0 297 128.5t120 320.5q0 195 -121.5 320.5t-308.5 125.5q-168 0 -288.5 -129t-120.5 -319zM1192 625h831q-36 178 -145 276t-268 98q-165 0 -281 -103.5t-137 -270.5z" />
<glyph unicode="&#x178;" horiz-adv-x="981" d="M-49 1456h164l372 -756l377 756h160l-467 -921v-535h-141v537zM236 1663v164h141v-164h-141zM605 1663v164h143v-164h-143z" />
<glyph unicode="&#x2c6;" horiz-adv-x="1024" d="M236 1247l200 350h152l200 -350h-92l-184 264l-184 -264h-92z" />
<glyph unicode="&#x2dc;" horiz-adv-x="1024" d="M223 1290q21 90 71.5 137.5t123.5 47.5q16 0 29 -2.5t24 -6.5l96 -30q13 -5 28 -8t28 -3q33 0 56 17.5t40 56.5h82q-26 -91 -74 -137.5t-117 -46.5q-14 0 -30 2.5t-35 7.5l-97 31q-15 4 -27.5 6t-25.5 2q-30 0 -53.5 -19t-38.5 -55h-80z" />
<glyph unicode="&#x2000;" horiz-adv-x="986" />
<glyph unicode="&#x2001;" horiz-adv-x="1972" />
<glyph unicode="&#x2002;" horiz-adv-x="986" />
<glyph unicode="&#x2003;" horiz-adv-x="1972" />
<glyph unicode="&#x2004;" horiz-adv-x="657" />
<glyph unicode="&#x2005;" horiz-adv-x="493" />
<glyph unicode="&#x2006;" horiz-adv-x="328" />
<glyph unicode="&#x2007;" horiz-adv-x="328" />
<glyph unicode="&#x2008;" horiz-adv-x="246" />
<glyph unicode="&#x2009;" horiz-adv-x="394" />
<glyph unicode="&#x200a;" horiz-adv-x="109" />
<glyph unicode="&#x2010;" horiz-adv-x="659" d="M94 483v133h469v-133h-469z" />
<glyph unicode="&#x2011;" horiz-adv-x="659" d="M94 483v133h469v-133h-469z" />
<glyph unicode="&#x2012;" horiz-adv-x="659" d="M94 483v133h469v-133h-469z" />
<glyph unicode="&#x2013;" horiz-adv-x="1024" d="M0 492v112h1024v-112h-1024z" />
<glyph unicode="&#x2014;" horiz-adv-x="2048" d="M0 492v112h2048v-112h-2048z" />
<glyph unicode="&#x2018;" horiz-adv-x="397" d="M78 1456h141l156 -428h-144z" />
<glyph unicode="&#x2019;" horiz-adv-x="397" d="M25 1028l153 428h144l-156 -428h-141z" />
<glyph unicode="&#x201a;" horiz-adv-x="397" d="M25 -162l153 428h144l-156 -428h-141z" />
<glyph unicode="&#x201c;" horiz-adv-x="692" d="M78 1456h141l156 -428h-144zM371 1456h143l154 -428h-142z" />
<glyph unicode="&#x201d;" horiz-adv-x="692" d="M25 1028l153 428h144l-156 -428h-141zM317 1028l156 428h141l-153 -428h-144z" />
<glyph unicode="&#x201e;" horiz-adv-x="692" d="M25 -162l153 428h144l-156 -428h-141zM317 -162l156 428h141l-153 -428h-144z" />
<glyph unicode="&#x2022;" horiz-adv-x="1208" d="M307 762q0 123 87 209t210 86q122 0 208.5 -86.5t86.5 -208.5t-87.5 -209.5t-209.5 -87.5q-123 0 -209 87t-86 210z" />
<glyph unicode="&#x2026;" horiz-adv-x="2048" d="M270 0v266h143v-266h-143zM952 0v266h143v-266h-143zM1636 0v266h143v-266h-143z" />
<glyph unicode="&#x202f;" horiz-adv-x="394" />
<glyph unicode="&#x2039;" horiz-adv-x="631" d="M115 549l245 321h138l-248 -321l248 -320h-138z" />
<glyph unicode="&#x203a;" horiz-adv-x="631" d="M133 229l248 320l-248 321h137l246 -321l-246 -320h-137z" />
<glyph unicode="&#x205f;" horiz-adv-x="493" />
<glyph unicode="&#x2122;" horiz-adv-x="1706" d="M264 1397v57h430v-57h-172v-473h-82v473h-176zM821 924v530h117l166 -422l156 422h116v-530h-71v467l-177 -467h-49l-186 467v-467h-72z" />
<glyph unicode="&#xe000;" horiz-adv-x="1100" d="M0 0v1100h1100v-1100h-1100z" />
</font>
</defs>
</svg>
